#TITLE:Strangeprogram;
#SUBTITLE:Full Version;
#ARTIST:DJ Sharpnel;
#TITLETRANSLIT:;
#SUBTITLETRANSLIT:;
#ARTISTTRANSLIT:;
#CREDIT:;
#BANNER:strangeprogrambn.png;
#BACKGROUND:strangeprogrambg.png;
#LYRICSPATH:;
#CDTITLE:!othnapCD.png;
#MUSIC:11 STRANGEPROGRAM.mp3;
#OFFSET:-0.320;
#SAMPLESTART:71.560;
#SAMPLELENGTH:19.660;
#SELECTABLE:YES;
#BPMS:0.000=107.500,21.000=108.280,24.000=107.640,24.000=215.000,52.000=107.500,54.000=215.000,84.000=53.740,88.000=215.000,116.000=107.500,118.000=215.000,207.000=107.500,209.000=215.000,301.000=107.500,303.000=215.000,363.000=107.500,365.000=215.000,421.000=107.500,425.000=53.740,427.000=215.000,451.000=107.500,454.000=429.998,458.000=215.000,490.000=53.459,493.000=107.500,495.000=110.720,497.000=215.000,557.000=107.500,559.000=215.000,589.000=107.500,590.000=215.000,621.000=215.980,622.000=215.000,670.000=429.997,702.000=859.995,704.000=223.774,707.500=88.174,707.750=46.954,707.875=60.554,708.000=48.254,708.125=37.434,708.250=75.874,708.375=31.034,708.500=39.034,708.625=73.854,708.750=68.254,708.833=48.254,709.000=31.834,709.167=64.254,709.333=31.074,709.500=59.494,709.667=13.474,709.833=68.094,710.000=17.274,710.125=4.854,710.167=40.474,710.250=20.814,710.375=71.634,710.500=24.034,710.625=210.834,710.688=171.214,710.750=217.234,710.813=145.614,710.875=82.954,710.938=144.174,711.000=51.754,711.083=33.714,711.167=73.334,711.250=15.284,711.313=184.504,711.375=77.684,711.438=59.644,711.500=4.824,711.563=89.244,711.625=56.824,711.688=140.444,711.750=192.864,711.813=250.885,711.875=217.664,711.938=172.444,712.000=128.024,712.063=121.964,712.125=93.744,712.188=133.944,712.250=148.764,712.313=118.744,712.375=155.164,712.417=145.144,712.438=85.144,712.500=65.524,712.583=93.944,712.667=43.924,712.750=104.324,712.833=88.704,712.917=130.724,713.000=101.504,713.083=649.919,713.250=599.099,713.333=596.699,713.417=501.881,713.500=441.461,713.583=331.443,713.625=234.224,713.667=321.843,713.750=142.223,713.813=16.983,713.875=106.203,713.938=32.183,714.000=71.803,714.083=11.383,714.333=44.603,714.500=95.803,714.563=87.803,714.625=39.383,714.688=123.003,714.813=63.383;
#STOPS:82.000=0.080
,82.250=0.080
,82.500=0.080
,82.750=0.080
,83.000=0.060
,83.250=0.080
,83.500=0.080
,83.750=0.060
,164.000=0.060
,164.250=0.080
,164.500=0.060
,164.750=0.080
,179.000=0.060
,179.250=0.080
,179.500=0.060
,179.750=0.080
,194.000=0.060
,194.250=0.080
,194.500=0.060
,194.750=0.080
;
#BGCHANGES:;
// cache tags:
#FIRSTBEAT:17.750;
#LASTBEAT:715.000;
#SONGFILENAME:Songs/Music V.I.P ^_^/[Quasar]Strangeprogram/strg.sm;
#HASMUSIC:1;
#HASBANNER:1;
#MUSICLENGTH:225.201;
// end cache tags

//---------------dance-single - ----------------
#NOTES:
     dance-single:
     :
     Challenge:
     15:
     1.000,1.000,1.000,0.107,1.000,2382.000,919.000,24.000,0.000,189.000:
0000
0000
0000
0000
,
0000
0000
0000
0000
,
0000
0000
0000
0000
,
0000
0000
0000
0000
,
0000
0000
0000
0000
0000
0000
0000
0010
0000
0000
2000
0000
3000
0000
0000
0202
,
0000
0000
0000
0000
0000
0000
0000
0000
0000
0000
0000
0000
0303
0000
0000
0100
0000
0000
0000
0000
0000
0000
0000
0000
1100
0000
0000
0000
0011
0000
0000
0000
0000
0000
0000
0000
0000
0000
0000
0000
0000
0000
0000
0000
0000
0000
0000
0000
,
0110
0000
1010
0001
0000
0100
0101
0000
,
0101
0000
1001
0100
0000
0010
1010
0000
,
1010
0000
0101
0010
0000
1000
0101
0000
,
1010
0000
0101
1000
0000
1000
0101
0000
,
0101
0000
1010
0100
0000
0001
1010
0000
,
0110
0000
1010
0100
0000
1000
0101
0000
,
1001
0000
0101
1000
0000
0100
0110
0000
,
1001
0010
1000
0001
0010
0001
1000
0100
1010
0001
0100
0010
0001
0010
1100
0001
,
1000
0010
1000
0010
1000
0001
0010
0001
0101
0010
1000
0001
0100
0001
0110
1000
,
0100
0010
0100
0001
1010
0001
0100
0001
1100
0010
0100
0010
0001
0100
0011
1000
,
0100
0010
0001
0010
1100
0010
0100
0001
0110
1000
0010
1000
0001
0100
0101
1000
,
0100
0001
0010
0100
1001
0100
0010
0100
1100
0001
0010
1000
0011
0100
0011
0100
,
0010
1000
0110
0001
1010
0001
0010
1000
0110
0001
0010
1000
0011
1000
0110
0001
,
1000
0100
0011
1000
0101
0010
0001
0010
1001
0100
0001
1000
1001
0001
0110
1000
,
0100
0001
0101
1000
0101
1000
0010
0100
1101
1101
1101
1101
1101
1101
1101
1101
,
1111
0000
0000
0000
0000
0000
0000
0000
1001
0000
0000
1001
0000
0000
0000
0000
0000
0000
0000
0000
0000
0000
0000
0000
0000
0000
0000
0000
0000
0000
0000
0000
0000
0000
0000
0000
0000
0000
0000
0000
0000
0000
0000
0020
0000
0000
0000
0030
,
1100
0010
1000
0001
0110
1000
0001
0100
0011
1000
0100
0001
0110
1000
0011
0010
,
0101
1000
0010
1000
0110
0001
1000
0100
1010
0100
0010
0001
0110
1000
0101
0010
,
1010
0001
0010
1000
0101
1000
0001
0010
1100
0001
0100
0001
1100
0010
1100
0001
,
1100
0010
0001
1000
0110
0001
1000
0100
1010
0001
0100
0001
1100
0010
0101
0010
,
1010
0100
1000
0001
1010
0100
0001
1000
0101
0010
1000
0001
1010
0100
1001
0010
,
1100
0010
1000
0001
1010
0100
0001
1000
0101
0010
1000
0001
1000
0001
0110
1000
,
0101
0010
1000
0100
0101
1000
0100
0010
1100
0010
0001
1000
0110
0001
1010
0100
,
0002
0000
1010
1100
1100
1100
0110
1010
1013
0000
1100
0000
0110
0000
1010
0000
,
0110
1100
1001
0101
0011
1100
1010
1001
,
0110
1010
1001
1010
1001
0110
1010
0110
,
0101
1001
0101
1001
0101
1010
1010
1100
,
1010
0110
1001
1010
1101
1001
1011
1101
,
1101
1010
1001
1011
1011
1001
1011
1101
,
1100
1101
1011
1001
1010
0011
0000
1100
,
1001
0000
1001
1010
1011
0101
1001
0000
,
1001
0000
2202
0000
3303
0000
0000
0000
1010
0100
0001
0010
1100
0001
0110
1000
,
1010
0001
0010
1000
0110
0001
1000
0100
0011
1000
0100
0001
1010
0100
0101
0010
,
1010
0001
0010
0100
0011
0100
1000
0001
1010
0100
0001
1000
0110
1000
0011
0100
,
1001
0100
0001
0010
0101
0010
1000
0100
1001
0010
1000
0001
0110
1000
0101
1000
,
1110
1110
1110
1110
1011
0001
0010
1000
0110
0001
1100
0100
1001
0010
0100
0001
,
1100
0100
0010
1000
0101
0010
0001
0010
1001
0100
1001
0100
1001
0010
1000
0010
,
1001
0100
0001
1000
0101
1000
0010
0100
1001
0100
1001
0100
0011
0100
0010
0001
,
1010
0001
0100
0001
1010
0100
0010
0001
1010
0001
1010
0100
1110
0111
1101
1011
,
1110
0010
0100
0001
1010
0100
0011
0100
1100
0010
1000
0100
0011
0100
0010
1000
,
0110
0000
0100
0001
1100
0010
0011
0100
1010
0001
0100
0010
1100
0010
1000
0100
,
0011
0010
0100
1000
0011
0100
1100
0001
1010
0100
0001
0100
1010
0100
0001
0100
,
0011
1000
0100
0001
1010
0100
0011
1000
1101
1110
0111
1011
1101
0000
0011
0000
,
1101
1011
1101
1011
1101
1011
1011
1011
,
1011
1101
1101
1011
1101
1011
1101
0111
,
1111
0000
1101
0000
1011
0000
1111
0000
1011
0000
1101
0000
1011
1101
0000
0111
,
0111
0111
0111
0111
0111
0000
1000
0000
1011
0000
0100
0000
1011
0000
0001
0000
,
1011
1101
0010
1101
1011
1101
1011
1101
,
0010
1101
1011
0010
1011
0100
1101
0010
,
1011
1101
0010
1101
1101
1011
1101
1011
,
0001
1011
1101
0100
1011
0100
1011
0100
,
1011
1101
1100
1101
1011
1111
0001
1011
,
1101
1011
1001
1101
1011
1011
0100
1011
,
1101
1011
0100
1111
0111
0000
0000
1101
,
1011
1101
1011
0101
1011
1101
1001
1010
,
1011
1001
1011
1010
0101
1010
0110
1010
,
0101
1010
0110
0101
1010
0110
0011
1100
,
0011
0101
1001
0011
1001
1010
1001
0011
,
1001
1010
0101
1010
0011
1001
1010
1001
,
1010
0101
1001
0101
1001
0101
1010
1001
,
0011
1001
1010
1001
1100
0101
1001
0101
,
1010
1001
1100
1001
0101
1010
1001
1001
,
0110
0000
0101
0000
0011
1000
0100
0001
1100
0001
0100
1000
0110
0001
1000
0010
,
0101
1000
0010
0001
1010
0100
0010
0001
0110
1000
0100
0010
1010
0001
0010
0001
,
0110
1000
0100
0001
1010
0100
0010
0001
1100
0001
0100
0010
1010
0001
0010
0001
,
0110
1000
0100
0001
1010
0001
0100
0010
1010
0001
0010
0001
1010
0100
0010
1000
,
0110
0001
0010
0100
1010
0001
0100
0010
0101
1000
0010
0100
1100
0010
0100
0010
,
1100
0001
0100
0001
1100
0010
0001
1000
0110
1000
0001
0010
1100
0001
0010
0001
,
1100
0010
0001
0010
1100
0001
0100
0010
0101
1000
0100
0001
1010
0100
0010
1000
,
0011
0100
1000
0010
1010
1010
0000
0101
0000
0101
0010
1000
1011
0100
0001
1000
,
0001
1000
0010
0001
0100
0010
1100
0010
0001
0010
0100
0010
0001
1000
0010
0100
,
0001
1000
0010
0100
1000
0001
1010
0100
0010
0001
0100
0001
1000
0001
0010
0001
,
1000
0010
0100
0010
1000
0001
1100
0001
0010
0100
0010
1000
0010
0100
0010
1000
,
0100
0001
0010
1000
0100
0010
1001
0010
0100
0010
1000
0001
0100
0010
1000
0010
,
0100
0001
1000
0100
0010
0001
1100
0010
0001
1000
0001
0010
0001
1000
0010
0100
,
1000
0010
0001
0100
0010
1000
0110
0001
0010
0001
1000
0100
0010
0100
0001
1000
,
0001
1000
0100
0010
0001
0100
1010
0001
0010
1000
0100
0001
0100
0010
1000
0001
,
0100
0010
1000
0001
0010
0100
1001
0100
0010
0100
0010
1000
0001
0100
0001
0010
,
0100
1000
0001
0010
0100
1000
0011
0100
0001
1000
0010
0100
0001
0100
0010
1000
,
0100
0010
0001
0010
0001
0100
1001
0100
0010
0001
0100
1000
0010
0100
0001
1000
,
0100
0010
0001
1000
0010
0100
0101
1000
0100
0001
0100
0010
1000
0010
0100
0001
,
0010
1000
0100
0001
0100
0001
1100
0010
0001
0100
0010
1000
0001
0010
0100
1000
,
0010
0100
0010
1000
0001
0100
0110
1000
0010
1000
0100
0010
0001
0010
0100
1000
,
0010
0100
0001
0010
0001
1000
0110
0001
0100
0001
1000
0001
0100
0010
0001
1000
,
0010
1000
0100
0001
1000
0100
1001
0010
0100
0001
0010
1001
0000
1010
0000
1100
,
0000
1001
2002
3003
1010
0100
0001
0010
1010
0001
0100
0010
0101
1000
0110
0001
,
1010
0100
0010
0001
1010
0001
0010
0001
1100
0001
0100
0010
1010
0001
1100
0010
,
1010
0001
0100
0010
1010
0001
0010
1000
0110
0001
1000
0010
1100
0010
1100
0001
,
0110
1000
0001
0100
1100
0001
0010
0100
1010
0001
0100
0001
0110
0010
1100
1000
,
0011
0100
0010
1000
0101
1000
0100
0001
1010
0100
0001
1000
0101
0010
1100
0001
,
1010
0100
0010
0100
1001
0010
0100
0001
1100
0100
0010
0001
1100
0100
1001
0100
,
0101
0010
0010
1000
0110
0001
1000
0001
1010
0001
1000
0010
1010
0100
1001
0010
,
1100
0001
1000
0001
0110
0001
1000
0001
1010
0001
0100
0001
1100
0100
0011
0100
,
1001
0100
0010
1000
0110
0001
1000
0100
1010
0001
1000
0100
0011
0100
1100
0010
,
0101
1000
0100
0001
0110
1000
0001
0010
1010
0001
0100
0001
0110
1000
0011
0100
,
1100
0100
0001
1000
0110
0001
1000
0001
0110
1000
0010
1000
0110
0001
0101
1000
,
0101
1000
0010
0001
0110
1000
0001
0100
0011
1000
0100
0001
1010
0100
0110
0100
,
0011
1000
0100
0001
0110
1000
0001
0100
0101
1000
0001
0100
0011
1000
0101
0010
,
1010
0010
0100
0001
0110
1000
0001
0100
0101
1000
0100
0010
1100
0010
1100
0001
,
0110
0001
0010
1000
1100
0110
0011
1010
0101
1101
0101
1001
0110
1100
0000
1001
,
0000
0000
0000
0000
0101
0000
0000
0000
1010
0000
0000
0000
1001
0000
0000
0000
0010
0100
0010
1000
0001
0100
0010
1000
0010
0100
0010
1000
0100
0010
0011
0000
0000
0000
0110
0000
0000
0000
1001
0000
0000
0000
1010
0000
0000
0000
0101
0000
1010
0000
0000
0000
0001
0000
0000
0000
1010
0000
0000
0000
0001
0000
0000
0000
,
1100
0001
1100
0100
0011
0000
1010
0010
1001
0001
0110
1000
0101
0010
1010
0001
,
1010
1000
0101
0010
1010
0001
1010
0100
0101
0010
1010
0001
1010
0100
1001
0100
,
1010
1000
0101
0010
1001
0100
1010
0001
1011
0100
1001
1000
0101
0100
1101
0010
,
0101
1000
1000
0010
1100
0001
1010
1000
0011
0100
1001
0100
0011
0010
1100
0100
,
1100
0001
1100
0100
0110
1000
0101
1000
0101
1000
0011
0100
1100
0001
1100
0010
,
0011
0100
0101
0010
1100
0001
1010
1000
0011
0010
1010
0001
1011
0000
1101
0000
,
1011
0000
1101
0000
1111
0000
1011
0000
1001
0100
1010
0100
0101
1000
0011
0100
,
1001
0000
0000
0100
0000
0000
0011
0000
0000
0100
0000
0000
0011
0000
0000
0100
0000
0000
0101
0000
0000
1000
0000
0000
0110
0000
1000
0000
0001
0000
0010
0000
0100
0000
0001
0000
1100
0000
0010
0000
0100
0000
0010
0000
1000
0000
0100
0000
,
0101
0000
0010
0000
0010
0000
0001
0000
0010
0000
0001
0000
1010
0000
0001
0000
0010
0000
1000
0000
0001
0000
0010
0000
1010
0000
0000
0010
0000
0000
0100
0000
0000
0001
0000
0000
1010
0000
0000
0100
0000
0000
0010
0000
0000
0001
0000
0000
,
1010
0001
0100
0001
1010
0100
0010
1000
0110
0100
1000
0001
1010
0010
0100
0001
,
1010
1000
0010
0100
1010
0010
0100
0001
1001
0100
0010
1000
0110
0001
1000
0001
,
1010
0001
1000
0010
1001
0100
0001
1000
0100
0001
0110
0001
1100
0001
1001
0010
,
0101
1000
1010
0001
1010
0100
0011
1000
0100
0010
1100
0001
1010
1000
0011
0100
,
1100
0001
0110
1000
0101
0010
0101
0010
1100
1000
0110
0001
1001
0100
0011
0010
,
1100
0001
1001
0100
0011
0100
1010
0100
0101
1000
0110
0100
1010
0100
1100
0100
,
0110
0000
0000
0000
0000
0000
0000
0000
0000
0000
0000
0000
1000
0000
0000
0000
0000
0000
0000
0000
0000
0000
0000
0000
0011
0000
0000
0000
0000
0000
0000
0000
0000
0000
0000
0000
0100
0000
0000
0000
0000
0000
0000
0000
0000
0000
0000
0000
1010
0000
0000
0000
0000
0000
0000
0000
0000
0000
0000
0000
0001
0000
0000
0000
0000
0000
0000
0000
0000
0000
0000
0000
1010
0000
0000
0000
0000
0000
0000
0000
0000
0000
0000
0000
0100
0000
0000
0000
0000
0000
0000
0000
0000
0000
0000
0000
1011
0000
0000
0000
0000
0000
0000
0000
1001
0000
0000
0000
0000
0000
0000
0000
0101
0000
0000
0000
0000
0000
0000
0000
0000
0000
0000
0000
0000
0000
1010
0000
0000
0000
0000
0000
0000
0000
0000
0000
1001
0000
0000
0000
0000
0000
0000
0000
0110
0000
0000
0000
0000
0000
1100
0000
0000
0000
0000
0000
0011
0000
0000
0000
0000
0000
0000
0000
0000
2200
0000
0000
0000
0000
0000
0022
0000
0000
0000
0000
0000
0000
0000
0000
0000
0000
0000
0000
0000
0000
0000
0000
0000
0000
0000
0000
,
0000
3333
0000
0000
,
0000
1110
1011
1010
0101
0110
1100
0101
,
1010
0000
0101
0000
1010
0000
0101
1010
1001
1100
1010
0000
0011
0000
1100
0000
,
1011
0101
1100
1010
1101
1010
0011
0110
,
1010
0000
1100
0000
0110
0011
1100
0011
1100
0000
0011
0000
1100
0000
0110
0000
,
0011
0110
1010
0101
1100
1100
0110
0110
,
0011
0000
0011
0000
0111
0000
1100
0011
1001
0000
0011
0000
1010
0000
1001
0000
,
1010
0101
0101
1010
1010
0101
1010
1001
,
0101
0000
1001
0000
1010
0101
1010
0101
1001
0000
0011
0000
1001
0000
0101
0000
,
1100
0001
0001
0100
0101
0000
1010
0000
0011
0000
1100
0000
1010
0000
1100
0000
,
0110
0000
0011
0000
0110
0000
0110
0101
1010
0000
1010
0000
1100
0000
1010
0000
,
0101
0011
1100
1100
1010
1100
0011
1100
,
0011
0000
0110
0000
1010
0011
1010
0101
1010
0000
1001
0000
0101
0000
1001
0000
,
1010
1001
1010
1001
1100
0011
1001
1001
,
0011
0000
1100
0000
0110
0000
0011
0110
0101
0000
0110
0000
0110
0000
0011
0000
,
1010
1100
0011
1001
1010
1001
1010
1001
,
0101
0000
0000
0000
0110
0000
0000
0000
1001
0110
0101
0000
1001
0000
0101
0000
0110
0000
1010
0000
0202
0000
0000
0000
1303
0000
0100
0000
1000
0000
0100
0000
,
0010
0001
0110
1000
0010
1000
0011
0001
0100
0010
1000
0001
1010
0100
1000
0010
,
0010
0001
0110
1000
0001
0001
0101
1000
0010
0100
0001
0001
0101
1000
0010
0100
,
0100
1000
0110
0001
0100
0100
0101
1000
0010
0100
0010
0001
0101
1000
0010
0100
,
0010
0100
0011
0010
0100
0001
1100
0001
0100
0010
0100
1000
1010
0001
0010
1000
,
0010
0100
0101
1000
0001
1000
1010
0001
1000
0001
0010
1000
0101
1000
0100
0001
,
1000
0010
1100
0100
0001
0010
1010
0010
1000
0100
0001
1000
0110
0010
1000
0001
,
1000
0010
1100
0001
0100
0001
1100
0100
0001
0010
0001
1000
0110
0001
0001
0000
,
0110
0000
0001
0000
2220
0000
0000
3330
1011
0000
0000
0000
1101
0000
0000
0000
,
1110
0111
1101
1011
,
1101
1111
1011
1111
,
1101
1101
1101
1011
,
1011
1101
0111
1101
,
0111
1101
1101
1011
,
1101
1011
1011
1101
,
1011
1011
1101
1011
,
1101
0000
0000
0000
2002
0000
0000
3003
1011
0100
0001
0010
1110
0001
0010
0100
,
1011
0001
0010
1000
1111
0010
0100
0001
1011
0001
0010
1000
1101
1000
0100
0001
,
1011
0001
0010
1000
1101
0010
1000
0100
1011
1000
0100
1000
1011
0100
0010
1000
,
1101
0010
0100
0010
1101
0010
1000
0001
1101
0001
0100
0001
1101
0010
1000
0001
,
1011
0100
1000
0010
1101
0001
1000
0100
1011
0110
1010
0110
1001
0101
1010
0110
,
0011
1001
1010
0101
1010
1001
1010
0110
0101
0101
0110
1100
0101
0101
1001
1010
,
0110
1001
0110
0101
0101
1001
1010
0110
0101
0101
0110
1001
1010
0110
1010
0101
,
1001
0101
1010
1001
0110
0101
1001
0101
0110
0101
1010
0101
0110
1001
0110
0101
,
1100
0000
0101
0000
0110
0000
0101
0000
0110
0000
0101
0000
1010
0000
1001
0000
0110
1000
0001
1000
0001
0100
0010
0001
0101
1000
0100
0001
1000
0100
0010
0001
,
1100
0100
0001
1000
0100
0010
1000
0001
1010
0001
0100
1000
0010
0001
1000
0001
1010
0001
0100
0001
1000
0010
1000
0001
0110
0001
0010
1000
0001
0010
0100
1000
,
0101
1000
0010
0100
0001
0010
0001
1000
0110
0001
1000
0001
0010
0100
1000
0001
0110
1000
0100
0001
1000
0010
1000
0001
0110
0001
1000
0010
1000
0001
0100
0010
,
1100
0010
1000
0100
1000
0001
0010
0100
1001
0100
0001
0010
1000
0100
0001
0100
1001
0010
1000
0100
0001
1000
0100
0001
1100
0010
0001
1000
0100
0010
0001
1000
,
0011
0010
1000
0100
0010
0001
1000
0010
1010
0001
0010
0001
0100
1000
0001
0100
0010
1000
0100
0010
0001
0010
0001
1000
0001
0010
0100
0100
0001
1000
0010
0100
,
0101
1000
0010
1000
0010
0001
0010
1000
0100
0010
0001
1000
0100
0001
0010
1000
0100
0001
0010
1000
0100
0001
0010
1000
0100
0001
1000
0100
1000
0001
1000
0100
,
0001
0010
1000
0100
1000
0001
0010
0001
1000
0100
0001
0010
1000
0100
0001
0100
1000
0010
0100
0001
0010
1000
0100
0001
0010
1000
0100
0001
0010
1000
0100
1000
,
0001
1000
0001
0100
0010
1000
0001
0100
0010
1000
0010
1000
0100
0001
0010
1000
0100
0001
0010
1000
0100
1000
0001
0010
0001
1000
0010
1000
0010
0100
0001
0100
,
1000
0010
1000
0100
0001
1000
0100
0010
0001
1000
0001
0100
0010
0100
1000
0100
0001
0010
0001
1000
0100
1000
0010
1000
0100
0001
0100
0001
0100
0001
0100
1000
,
0001
1000
0001
0100
0010
1000
0001
1000
0010
0100
0010
1000
0010
0100
1000
0100
0001
0100
0010
1000
0100
1000
0001
1000
0001
1000
0010
1000
0100
0001
0010
1000
,
0001
0010
0001
1000
0001
1000
0100
1000
0010
1000
0010
0100
0001
0010
0001
1000
0001
1000
0001
1000
0001
1000
0100
0001
1000
0100
0010
1000
0100
0001
0010
1000
,
0100
1000
0001
1000
0010
0100
0001
1000
0010
0100
0001
0100
0010
0100
0001
1000
0010
1000
0010
0100
0010
0001
0010
1000
0001
0010
0100
1000
0010
0100
1000
0001
,
0100
0001
0010
1000
0100
1000
0001
0100
1000
0001
1000
0001
0100
0010
1000
0100
0001
0000
0010
0000
0100
0000
0010
0000
0100
0000
1000
0000
0100
0000
0010
0000
,
2202
0000
0000
0000
,
0000
0000
0000
0000
,
3300
0000
0000
0003
;
